<?xml version="1.0" standalone="no"?>
<!DOCTYPE svg PUBLIC "-//W3C//DTD SVG 1.1//EN" "http://www.w3.org/Graphics/SVG/1.1/DTD/svg11.dtd" >
<svg xmlns="http://www.w3.org/2000/svg">
<metadata>Generated by IcoMoon</metadata>
<defs>
<font id="vcv-evil" horiz-adv-x="1024">
<font-face units-per-em="1024" ascent="960" descent="-64" />
<missing-glyph horiz-adv-x="1024" />
<glyph unicode="&#x20;" horiz-adv-x="512" d="" />
<glyph unicode="&#xe900;" glyph-name="ei-archive" d="M860.16 550.4h-40.96v102.4c0 12.288-8.192 20.48-20.48 20.48h-573.44c-12.288 0-20.48-8.192-20.48-20.48v-102.4h-40.96v102.4c0 34.816 26.624 61.44 61.44 61.44h573.44c34.816 0 61.44-26.624 61.44-61.44v-102.4zM757.76 140.8h-491.52c-34.816 0-61.44 26.624-61.44 61.44v348.16h40.96v-348.16c0-12.288 8.192-20.48 20.48-20.48h491.52c12.288 0 20.48 8.192 20.48 20.48v348.16h40.96v-348.16c0-34.816-26.624-61.44-61.44-61.44zM593.92 427.52h-163.84c-12.288 0-20.48 8.192-20.48 20.48s8.192 20.48 20.48 20.48h163.84c12.288 0 20.48-8.192 20.48-20.48s-8.192-20.48-20.48-20.48zM163.84 591.36h696.32v-40.96h-696.32z" />
<glyph unicode="&#xe901;" glyph-name="ei-arrow-down" d="M512 99.84c-192.512 0-348.16 155.648-348.16 348.16s155.648 348.16 348.16 348.16 348.16-155.648 348.16-348.16-155.648-348.16-348.16-348.16zM512 755.2c-169.984 0-307.2-137.216-307.2-307.2s137.216-307.2 307.2-307.2 307.2 137.216 307.2 307.2-137.216 307.2-307.2 307.2zM512 255.488l-198.656 198.656 28.672 28.672 169.984-169.984 169.984 169.984 28.672-28.672zM491.52 632.32h40.96v-348.16h-40.96z" />
<glyph unicode="&#xe902;" glyph-name="ei-arrow-left" d="M512 99.84c-192.512 0-348.16 155.648-348.16 348.16s155.648 348.16 348.16 348.16 348.16-155.648 348.16-348.16-155.648-348.16-348.16-348.16zM512 755.2c-169.984 0-307.2-137.216-307.2-307.2s137.216-307.2 307.2-307.2 307.2 137.216 307.2 307.2-137.216 307.2-307.2 307.2zM518.144 249.344l-198.656 198.656 198.656 198.656 28.672-28.672-169.984-169.984 169.984-169.984zM348.16 468.48h348.16v-40.96h-348.16z" />
<glyph unicode="&#xe903;" glyph-name="ei-arrow-right" d="M512 99.84c-192.512 0-348.16 155.648-348.16 348.16s155.648 348.16 348.16 348.16 348.16-155.648 348.16-348.16-155.648-348.16-348.16-348.16zM512 755.2c-169.984 0-307.2-137.216-307.2-307.2s137.216-307.2 307.2-307.2 307.2 137.216 307.2 307.2-137.216 307.2-307.2 307.2zM505.856 249.344l-28.672 28.672 169.984 169.984-169.984 169.984 28.672 28.672 198.656-198.656zM327.68 468.48h348.16v-40.96h-348.16z" />
<glyph unicode="&#xe904;" glyph-name="ei-arrow-up" d="M512 99.84c-192.512 0-348.16 155.648-348.16 348.16s155.648 348.16 348.16 348.16 348.16-155.648 348.16-348.16-155.648-348.16-348.16-348.16zM512 755.2c-169.984 0-307.2-137.216-307.2-307.2s137.216-307.2 307.2-307.2 307.2 137.216 307.2 307.2-137.216 307.2-307.2 307.2zM681.984 413.184l-169.984 169.984-169.984-169.984-28.672 28.672 198.656 198.656 198.656-198.656zM491.52 611.84h40.96v-348.16h-40.96z" />
<glyph unicode="&#xe905;" glyph-name="ei-bell" d="M860.16 222.72c-133.12 0-151.552 129.024-167.936 243.712-18.432 126.976-34.816 247.808-180.224 247.808s-161.792-120.832-180.224-247.808c-16.384-114.688-34.816-243.712-167.936-243.712v40.96c94.208 0 108.544 79.872 126.976 206.848s40.96 284.672 221.184 284.672 202.752-157.696 221.184-284.672c18.432-126.976 32.768-206.848 126.976-206.848v-40.96zM512 140.8c-57.344 0-102.4 45.056-102.4 102.4h40.96c0-34.816 26.624-61.44 61.44-61.44s61.44 26.624 61.44 61.44h40.96c0-57.344-45.056-102.4-102.4-102.4zM163.84 263.68h696.32v-40.96h-696.32zM552.96 755.2c0-22.528-18.432-30.72-40.96-30.72s-40.96 8.192-40.96 30.72 18.432 40.96 40.96 40.96 40.96-18.432 40.96-40.96z" />
<glyph unicode="&#xe906;" glyph-name="ei-calendar" d="M757.76 181.76h-491.52c-34.816 0-61.44 26.624-61.44 61.44v450.56c0 34.816 22.528 61.44 51.2 61.44h30.72v-40.96h-30.72c-4.096 0-10.24-8.192-10.24-20.48v-450.56c0-12.288 8.192-20.48 20.48-20.48h491.52c12.288 0 20.48 8.192 20.48 20.48v450.56c0 12.288-6.144 20.48-10.24 20.48h-30.72v40.96h30.72c28.672 0 51.2-26.624 51.2-61.44v-450.56c0-34.816-26.624-61.44-61.44-61.44zM348.16 673.28c-12.288 0-20.48 8.192-20.48 20.48v81.92c0 12.288 8.192 20.48 20.48 20.48s20.48-8.192 20.48-20.48v-81.92c0-12.288-8.192-20.48-20.48-20.48zM675.84 673.28c-12.288 0-20.48 8.192-20.48 20.48v81.92c0 12.288 8.192 20.48 20.48 20.48s20.48-8.192 20.48-20.48v-81.92c0-12.288-8.192-20.48-20.48-20.48zM409.6 755.2h204.8v-40.96h-204.8zM245.76 632.32h532.48v-40.96h-532.48zM696.32 550.4h40.96v-40.96h-40.96zM614.4 550.4h40.96v-40.96h-40.96zM532.48 550.4h40.96v-40.96h-40.96zM450.56 550.4h40.96v-40.96h-40.96zM368.64 550.4h40.96v-40.96h-40.96zM696.32 468.48h40.96v-40.96h-40.96zM614.4 468.48h40.96v-40.96h-40.96zM532.48 468.48h40.96v-40.96h-40.96zM450.56 468.48h40.96v-40.96h-40.96zM368.64 468.48h40.96v-40.96h-40.96zM286.72 468.48h40.96v-40.96h-40.96zM696.32 386.56h40.96v-40.96h-40.96zM614.4 386.56h40.96v-40.96h-40.96zM532.48 386.56h40.96v-40.96h-40.96zM450.56 386.56h40.96v-40.96h-40.96zM368.64 386.56h40.96v-40.96h-40.96zM286.72 386.56h40.96v-40.96h-40.96zM614.4 304.64h40.96v-40.96h-40.96zM532.48 304.64h40.96v-40.96h-40.96zM450.56 304.64h40.96v-40.96h-40.96zM368.64 304.64h40.96v-40.96h-40.96zM286.72 304.64h40.96v-40.96h-40.96z" />
<glyph unicode="&#xe907;" glyph-name="ei-camera" d="M798.72 181.76h-573.44c-34.816 0-61.44 26.624-61.44 61.44v368.64c0 34.816 26.624 61.44 61.44 61.44h122.88c4.096 0 10.24 4.096 12.288 6.144l22.528 45.056c8.192 16.384 28.672 28.672 47.104 28.672h163.84c18.432 0 38.912-12.288 47.104-28.672l22.528-45.056c2.048-4.096 8.192-6.144 12.288-6.144h122.88c34.816 0 61.44-26.624 61.44-61.44v-368.64c0-34.816-26.624-61.44-61.44-61.44zM225.28 632.32c-12.288 0-20.48-8.192-20.48-20.48v-368.64c0-12.288 8.192-20.48 20.48-20.48h573.44c12.288 0 20.48 8.192 20.48 20.48v368.64c0 12.288-8.192 20.48-20.48 20.48h-122.88c-18.432 0-38.912 12.288-47.104 28.672l-22.528 45.056c-2.048 4.096-8.192 8.192-12.288 8.192h-163.84c-4.096 0-10.24-4.096-12.288-6.144l-22.528-45.056c-8.192-18.432-28.672-30.72-47.104-30.72h-122.88zM512 263.68c-102.4 0-184.32 81.92-184.32 184.32s81.92 184.32 184.32 184.32 184.32-81.92 184.32-184.32-81.92-184.32-184.32-184.32zM512 591.36c-79.872 0-143.36-63.488-143.36-143.36s63.488-143.36 143.36-143.36 143.36 63.488 143.36 143.36-63.488 143.36-143.36 143.36zM737.28 591.36c0-11.311-9.169-20.48-20.48-20.48s-20.48 9.169-20.48 20.48c0 11.311 9.169 20.48 20.48 20.48s20.48-9.169 20.48-20.48zM245.76 714.24h81.92v-20.48h-81.92zM512 529.92v20.48c-57.344 0-102.4-45.056-102.4-102.4h20.48c0 45.056 36.864 81.92 81.92 81.92z" />
<glyph unicode="&#xe908;" glyph-name="ei-cart" d="M716.8 263.68h-450.56c-6.144 0-12.288 4.096-16.384 8.192s-4.096 12.288-2.048 18.432l38.912 98.304-38.912 366.592h-124.928v40.96h143.36c10.24 0 18.432-8.192 20.48-18.432l40.96-389.12c0-4.096 0-6.144-2.048-10.24l-28.672-73.728h440.32l-20.48-40.96zM311.296 366.080l-8.192 40.96 475.136 98.304v167.936h-491.52v40.96h512c12.288 0 20.48-8.192 20.48-20.48v-204.8c0-10.24-6.144-18.432-16.384-20.48l-491.52-102.4zM737.28 140.8c-45.056 0-81.92 36.864-81.92 81.92s36.864 81.92 81.92 81.92 81.92-36.864 81.92-81.92-36.864-81.92-81.92-81.92zM737.28 263.68c-22.528 0-40.96-18.432-40.96-40.96s18.432-40.96 40.96-40.96 40.96 18.432 40.96 40.96-18.432 40.96-40.96 40.96zM245.76 140.8c-45.056 0-81.92 36.864-81.92 81.92s36.864 81.92 81.92 81.92 81.92-36.864 81.92-81.92-36.864-81.92-81.92-81.92zM245.76 263.68c-22.528 0-40.96-18.432-40.96-40.96s18.432-40.96 40.96-40.96 40.96 18.432 40.96 40.96-18.432 40.96-40.96 40.96z" />
<glyph unicode="&#xe909;" glyph-name="ei-chart" d="M368.64 222.72h-40.96v204.8h-81.92v-204.8h-40.96v245.76h163.84zM573.44 222.72h-40.96v327.68h-81.92v-327.68h-40.96v368.64h163.84zM778.24 222.72h-40.96v450.56h-81.92v-450.56h-40.96v491.52h163.84zM163.84 222.72h655.36v-40.96h-655.36z" />
<glyph unicode="&#xe90a;" glyph-name="ei-check" d="M512 99.84c-192.512 0-348.16 155.648-348.16 348.16s155.648 348.16 348.16 348.16 348.16-155.648 348.16-348.16-155.648-348.16-348.16-348.16zM512 755.2c-169.984 0-307.2-137.216-307.2-307.2s137.216-307.2 307.2-307.2 307.2 137.216 307.2 307.2-137.216 307.2-307.2 307.2zM471.040 296.448l-178.176 178.176 28.672 28.672 149.504-149.504 231.424 231.424 28.672-28.672z" />
<glyph unicode="&#xe90b;" glyph-name="ei-chevron-down" d="M512 296.448l-198.656 198.656 28.672 28.672 169.984-169.984 169.984 169.984 28.672-28.672z" />
<glyph unicode="&#xe90c;" glyph-name="ei-chevron-left" d="M559.104 249.344l-198.656 198.656 198.656 198.656 28.672-28.672-169.984-169.984 169.984-169.984z" />
<glyph unicode="&#xe90d;" glyph-name="ei-chevron-right" d="M464.896 249.344l-28.672 28.672 169.984 169.984-169.984 169.984 28.672 28.672 198.656-198.656z" />
<glyph unicode="&#xe90e;" glyph-name="ei-chevron-up" d="M681.984 372.224l-169.984 169.984-169.984-169.984-28.672 28.672 198.656 198.656 198.656-198.656z" />
<glyph unicode="&#xe90f;" glyph-name="ei-clock" d="M512 99.84c-192.512 0-348.16 155.648-348.16 348.16s155.648 348.16 348.16 348.16 348.16-155.648 348.16-348.16-155.648-348.16-348.16-348.16zM512 755.2c-169.984 0-307.2-137.216-307.2-307.2s137.216-307.2 307.2-307.2 307.2 137.216 307.2 307.2-137.216 307.2-307.2 307.2zM620.544 269.824l-129.024 129.024v233.472h40.96v-217.088l116.736-116.736z" />
<glyph unicode="&#xe910;" glyph-name="ei-close-o" d="M512 99.84c-192.512 0-348.16 155.648-348.16 348.16s155.648 348.16 348.16 348.16 348.16-155.648 348.16-348.16-155.648-348.16-348.16-348.16zM512 755.2c-169.984 0-307.2-137.216-307.2-307.2s137.216-307.2 307.2-307.2 307.2 137.216 307.2 307.2-137.216 307.2-307.2 307.2zM661.156 626.135l28.959-28.979-327.27-327.27-28.959 28.959zM362.844 626.135l327.27-327.27-28.959-28.979-327.27 327.27z" />
<glyph unicode="&#xe911;" glyph-name="ei-close" d="M763.986 728.945l28.959-28.959-532.931-532.89-28.959 28.938zM260.014 728.945l532.931-532.89-28.959-28.979-532.931 532.89z" />
<glyph unicode="&#xe912;" glyph-name="ei-comment" d="M307.2 99.84h-40.96l24.576 32.768c16.384 22.528 26.624 51.2 32.768 86.016-102.4 47.104-159.744 135.168-159.744 249.856 0 176.128 133.12 286.72 348.16 286.72s348.16-110.592 348.16-286.72c0-180.224-131.072-286.72-348.16-286.72h-14.336c-32.768-38.912-90.112-81.92-190.464-81.92zM512 714.24c-192.512 0-307.2-92.16-307.2-245.76 0-131.072 79.872-192.512 147.456-219.136l14.336-6.144-2.048-16.384c-4.096-32.768-10.24-61.44-22.528-86.016 67.584 8.192 106.496 43.008 129.024 71.68l6.144 8.192h34.816c276.48 0 307.2 172.032 307.2 245.76 0 155.648-114.688 247.808-307.2 247.808z" />
<glyph unicode="&#xe913;" glyph-name="ei-credit-card" d="M798.72 181.76h-573.44c-34.816 0-61.44 26.624-61.44 61.44v409.6c0 34.816 26.624 61.44 61.44 61.44h573.44c34.816 0 61.44-26.624 61.44-61.44v-409.6c0-34.816-26.624-61.44-61.44-61.44zM225.28 673.28c-12.288 0-20.48-8.192-20.48-20.48v-409.6c0-12.288 8.192-20.48 20.48-20.48h573.44c12.288 0 20.48 8.192 20.48 20.48v409.6c0 12.288-8.192 20.48-20.48 20.48h-573.44zM184.32 632.32h655.36v-122.88h-655.36zM245.76 427.52h20.48v-40.96h-20.48zM286.72 427.52h20.48v-40.96h-20.48zM327.68 427.52h20.48v-40.96h-20.48zM389.12 427.52h20.48v-40.96h-20.48zM430.080 427.52h20.48v-40.96h-20.48zM471.040 427.52h20.48v-40.96h-20.48zM532.48 427.52h20.48v-40.96h-20.48zM573.44 427.52h20.48v-40.96h-20.48zM614.4 427.52h20.48v-40.96h-20.48zM675.84 427.52h20.48v-40.96h-20.48zM716.8 427.52h20.48v-40.96h-20.48zM757.76 427.52h20.48v-40.96h-20.48z" />
<glyph unicode="&#xe914;" glyph-name="ei-envelope" d="M651.182 463.483l204.186-204.186-28.979-28.959-204.186 204.186zM374.333 462.602l28.959-28.959-202.752-202.752-28.959 28.877zM512 347.648c-30.72 0-63.488 12.288-86.016 36.864l-256 253.952 28.672 28.672 256-256c32.768-32.768 83.968-32.768 116.736 0l256 256 28.672-28.672-258.048-256c-22.528-22.528-55.296-34.816-86.016-34.816zM798.72 181.76h-573.44c-34.816 0-61.44 26.624-61.44 61.44v409.6c0 34.816 26.624 61.44 61.44 61.44h573.44c34.816 0 61.44-26.624 61.44-61.44v-409.6c0-34.816-26.624-61.44-61.44-61.44zM225.28 673.28c-12.288 0-20.48-8.192-20.48-20.48v-409.6c0-12.288 8.192-20.48 20.48-20.48h573.44c12.288 0 20.48 8.192 20.48 20.48v409.6c0 12.288-8.192 20.48-20.48 20.48h-573.44z" />
<glyph unicode="&#xe918;" glyph-name="ei-exclamation" d="M512 99.84c-192.512 0-348.16 155.648-348.16 348.16s155.648 348.16 348.16 348.16 348.16-155.648 348.16-348.16-155.648-348.16-348.16-348.16zM512 755.2c-169.984 0-307.2-137.216-307.2-307.2s137.216-307.2 307.2-307.2 307.2 137.216 307.2 307.2-137.216 307.2-307.2 307.2zM491.52 304.64h40.96v-40.96h-40.96zM524.288 345.6h-24.576l-8.192 163.84v122.88h40.96v-122.88z" />
<glyph unicode="&#xe919;" glyph-name="ei-external-link" d="M784.138 749.117l28.959-28.979-306.995-306.995-28.959 28.959zM819.2 550.4h-40.96v163.84h-163.84v40.96h204.8zM716.8 181.76h-409.6c-34.816 0-61.44 26.624-61.44 61.44v409.6c0 34.816 26.624 61.44 61.44 61.44h225.28v-40.96h-225.28c-12.288 0-20.48-8.192-20.48-20.48v-409.6c0-12.288 8.192-20.48 20.48-20.48h409.6c12.288 0 20.48 8.192 20.48 20.48v225.28h40.96v-225.28c0-34.816-26.624-61.44-61.44-61.44z" />
<glyph unicode="&#xe91a;" glyph-name="ei-eye" d="M512 222.72c-235.52 0-342.016 206.848-346.112 217.088-2.048 6.144-2.048 12.288 0 18.432 4.096 8.192 110.592 215.040 346.112 215.040s342.016-206.848 346.112-217.088c2.048-6.144 2.048-12.288 0-18.432-4.096-8.192-110.592-215.040-346.112-215.040zM206.848 448c22.528-38.912 120.832-184.32 305.152-184.32s280.576 145.408 305.152 184.32c-22.528 38.912-120.832 184.32-305.152 184.32s-280.576-145.408-305.152-184.32zM512 263.68c-102.4 0-184.32 81.92-184.32 184.32s81.92 184.32 184.32 184.32 184.32-81.92 184.32-184.32-81.92-184.32-184.32-184.32zM512 591.36c-79.872 0-143.36-63.488-143.36-143.36s63.488-143.36 143.36-143.36 143.36 63.488 143.36 143.36-63.488 143.36-143.36 143.36zM512 345.6c-57.344 0-102.4 45.056-102.4 102.4 0 12.288 8.192 20.48 20.48 20.48s20.48-8.192 20.48-20.48c0-34.816 26.624-61.44 61.44-61.44s61.44 26.624 61.44 61.44-26.624 61.44-61.44 61.44c-12.288 0-20.48 8.192-20.48 20.48s8.192 20.48 20.48 20.48c57.344 0 102.4-45.056 102.4-102.4s-45.056-102.4-102.4-102.4z" />
<glyph unicode="&#xe91b;" glyph-name="ei-gear" d="M512 263.68c-102.4 0-184.32 81.92-184.32 184.32s81.92 184.32 184.32 184.32 184.32-81.92 184.32-184.32-81.92-184.32-184.32-184.32zM512 591.36c-79.872 0-143.36-63.488-143.36-143.36s63.488-143.36 143.36-143.36 143.36 63.488 143.36 143.36-63.488 143.36-143.36 143.36zM567.296 58.88h-110.592l-30.72 94.208c-20.48 6.144-40.96 14.336-59.392 24.576l-90.112-45.056-77.824 77.824 45.056 90.112c-10.24 18.432-18.432 38.912-24.576 59.392l-96.256 32.768v110.592l94.208 30.72c6.144 20.48 14.336 40.96 24.576 59.392l-45.056 90.112 77.824 77.824 90.112-45.056c18.432 10.24 38.912 18.432 59.392 24.576l32.768 96.256h110.592l30.72-94.208c20.48-6.144 40.96-14.336 59.392-24.576l90.112 45.056 77.824-77.824-45.056-90.112c10.24-18.432 18.432-38.912 24.576-59.392l94.208-30.72v-110.592l-94.208-30.72c-6.144-20.48-14.336-40.96-24.576-59.392l45.056-90.112-77.824-77.824-90.112 45.056c-18.432-10.24-38.912-18.432-59.392-24.576l-30.72-98.304zM485.376 99.84h53.248l28.672 88.064 10.24 2.048c24.576 6.144 47.104 16.384 69.632 28.672l10.24 6.144 81.92-40.96 36.864 36.864-40.96 81.92 6.144 10.24c12.288 20.48 22.528 45.056 28.672 69.632l2.048 10.24 88.064 28.672v53.248l-88.064 28.672-2.048 10.24c-6.144 24.576-16.384 47.104-28.672 69.632l-6.144 10.24 40.96 81.92-36.864 36.864-81.92-40.96-10.24 6.144c-22.528 12.288-45.056 22.528-69.632 28.672l-10.24 2.048-28.672 88.064h-53.248l-28.672-88.064-10.24-2.048c-24.576-6.144-47.104-16.384-69.632-28.672l-10.24-6.144-81.92 40.96-36.864-36.864 40.96-81.92-6.144-10.24c-12.288-20.48-22.528-45.056-28.672-69.632l-2.048-10.24-88.064-28.672v-53.248l88.064-28.672 2.048-10.24c6.144-24.576 16.384-47.104 28.672-69.632l6.144-10.24-40.96-81.92 36.864-36.864 81.92 40.96 10.24-6.144c22.528-12.288 45.056-22.528 69.632-28.672l10.24-2.048 28.672-88.064z" />
<glyph unicode="&#xe91c;" glyph-name="ei-heart" d="M512 146.944l-12.288 10.24c-264.192 215.040-335.872 290.816-335.872 413.696 0 102.4 81.92 184.32 184.32 184.32 83.968 0 131.072-47.104 163.84-83.968 32.768 36.864 79.872 83.968 163.84 83.968 102.4 0 184.32-81.92 184.32-184.32 0-122.88-71.68-198.656-335.872-413.696l-12.288-10.24zM348.16 714.24c-79.872 0-143.36-63.488-143.36-143.36 0-104.448 65.536-174.080 307.2-370.688 241.664 196.608 307.2 266.24 307.2 370.688 0 79.872-63.488 143.36-143.36 143.36-71.68 0-110.592-43.008-141.312-77.824l-22.528-26.624-22.528 26.624c-30.72 34.816-69.632 77.824-141.312 77.824z" />
<glyph unicode="&#xe91d;" glyph-name="ei-image" d="M798.72 181.76h-573.44c-34.816 0-61.44 26.624-61.44 61.44v409.6c0 34.816 26.624 61.44 61.44 61.44h573.44c34.816 0 61.44-26.624 61.44-61.44v-409.6c0-34.816-26.624-61.44-61.44-61.44zM225.28 673.28c-12.288 0-20.48-8.192-20.48-20.48v-409.6c0-12.288 8.192-20.48 20.48-20.48h573.44c12.288 0 20.48 8.192 20.48 20.48v409.6c0 12.288-8.192 20.48-20.48 20.48h-573.44zM614.4 468.48c-45.056 0-81.92 36.864-81.92 81.92s36.864 81.92 81.92 81.92 81.92-36.864 81.92-81.92-36.864-81.92-81.92-81.92zM614.4 591.36c-22.528 0-40.96-18.432-40.96-40.96s18.432-40.96 40.96-40.96 40.96 18.432 40.96 40.96-18.432 40.96-40.96 40.96zM722.944 187.904l-333.824 313.344-190.464-176.128-28.672 28.672 219.136 204.8 362.496-342.016zM827.392 290.304l-110.592 90.112-92.16-75.776-26.624 32.768 118.784 96.256 135.168-110.592z" />
<glyph unicode="&#xe91e;" glyph-name="ei-like" d="M819.2 484.864c0 43.008-34.816 65.536-81.92 65.536h-137.216c10.24 36.864 14.336 71.68 14.336 102.4 0 118.784-32.768 143.36-61.44 143.36-18.432 0-32.768-2.048-51.2-12.288-6.144-4.096-8.192-8.192-10.24-14.336l-20.48-110.592c-22.528-57.344-77.824-108.544-122.88-143.36v-292.864c16.384 0 32.768-8.192 53.248-18.432 22.528-10.24 45.056-22.528 69.632-22.528h194.56c40.96 0 71.68 32.768 71.68 61.44 0 6.144 0 10.24-2.048 14.336 24.576 10.24 43.008 30.72 43.008 57.344 0 12.288-2.048 22.528-6.144 32.768 16.384 10.24 30.72 28.672 30.72 49.152 0 12.288-6.144 24.576-12.288 34.816 16.384 12.288 28.672 32.768 28.672 53.248zM776.192 484.864c0-26.624-26.624-28.672-30.72-40.96-4.096-14.336 16.384-18.432 16.384-43.008s-30.72-24.576-34.816-38.912c-4.096-16.384 10.24-20.48 10.24-45.056v-4.096c-4.096-20.48-34.816-22.528-40.96-30.72-6.144-10.24 0-14.336 0-36.864 0-12.288-14.336-20.48-30.72-20.48h-194.56c-16.384 0-32.768 8.192-53.248 18.432-16.384 8.192-32.768 16.384-49.152 20.48v215.040c51.2 38.912 116.736 96.256 141.312 167.936v4.096l18.432 102.4c8.192 2.048 14.336 2.048 24.576 2.048 4.096 0 20.48-24.576 20.48-102.4 0-30.72-6.144-63.488-16.384-102.4h-4.096c-12.288 0-20.48-8.192-20.48-20.48s8.192-20.48 20.48-20.48h184.32c20.48 0 38.912-10.24 38.912-24.576zM327.68 181.76h-122.88c-22.528 0-40.96 18.432-40.96 40.96v286.72c0 22.528 18.432 40.96 40.96 40.96h122.88c22.528 0 40.96-18.432 40.96-40.96v-286.72c0-22.528-18.432-40.96-40.96-40.96zM204.8 509.44v-286.72h122.88v286.72h-122.88z" />
<glyph unicode="&#xe91f;" glyph-name="ei-link" d="M491.52 341.504c0-4.096 2.048-10.24 2.048-16.384 0-28.672-10.24-53.248-30.72-73.728l-40.96-40.96c-20.48-20.48-45.056-30.72-73.728-30.72-57.344 0-104.448 47.104-104.448 104.448 0 28.672 10.24 53.248 30.72 73.728l40.96 40.96c20.48 20.48 45.056 30.72 73.728 30.72 6.144 0 10.24 0 16.384-2.048l30.72 30.72c-14.336 6.144-30.72 8.192-47.104 8.192-38.912 0-73.728-14.336-100.352-40.96l-40.96-40.96c-26.624-26.624-40.96-61.44-40.96-100.352 0-77.824 63.488-141.312 141.312-141.312 38.912 0 73.728 14.336 100.352 40.96l40.96 40.96c26.624 26.624 40.96 61.44 40.96 100.352 0 16.384-2.048 32.768-8.192 47.104l-30.72-30.72zM675.84 753.152c-38.912 0-73.728-14.336-100.352-40.96l-40.96-40.96c-26.624-26.624-40.96-61.44-40.96-100.352 0-16.384 2.048-32.768 8.192-47.104l30.72 30.72c0 4.096-2.048 10.24-2.048 16.384 0 28.672 10.24 53.248 30.72 73.728l40.96 40.96c20.48 20.48 45.056 30.72 73.728 30.72 57.344 0 104.448-47.104 104.448-104.448 0-28.672-10.24-53.248-30.72-73.728l-40.96-40.96c-20.48-20.48-45.056-30.72-73.728-30.72-6.144 0-10.24 0-16.384 2.048l-30.72-30.72c14.336-6.144 30.72-8.192 47.104-8.192 38.912 0 73.728 14.336 100.352 40.96l40.96 40.96c26.624 26.624 40.96 61.44 40.96 100.352 0 77.824-63.488 141.312-141.312 141.312zM409.6 325.12c-6.144 0-10.24 2.048-14.336 6.144-8.192 8.192-8.192 20.48 0 28.672l204.8 204.8c8.192 8.192 20.48 8.192 28.672 0s8.192-20.48 0-28.672l-204.8-204.8c-4.096-4.096-8.192-6.144-14.336-6.144z" />
<glyph unicode="&#xe920;" glyph-name="ei-location" d="M512 89.6l-16.384 18.432c-10.24 10.24-249.856 292.864-249.856 462.848 0 147.456 118.784 266.24 266.24 266.24s266.24-118.784 266.24-266.24c0-169.984-239.616-452.608-249.856-464.896l-16.384-16.384zM512 796.16c-124.928 0-225.28-100.352-225.28-225.28 0-131.072 172.032-352.256 225.28-417.792 53.248 65.536 225.28 286.72 225.28 417.792 0 124.928-100.352 225.28-225.28 225.28zM512 468.48c-57.344 0-102.4 45.056-102.4 102.4s45.056 102.4 102.4 102.4 102.4-45.056 102.4-102.4-45.056-102.4-102.4-102.4zM512 632.32c-34.816 0-61.44-26.624-61.44-61.44s26.624-61.44 61.44-61.44 61.44 26.624 61.44 61.44-26.624 61.44-61.44 61.44z" />
<glyph unicode="&#xe921;" glyph-name="ei-lock" d="M696.32 488.96h-40.96v81.92c0 79.872-63.488 143.36-143.36 143.36s-143.36-63.488-143.36-143.36v-81.92h-40.96v81.92c0 102.4 81.92 184.32 184.32 184.32s184.32-81.92 184.32-184.32v-81.92zM675.84 140.8h-327.68c-34.816 0-61.44 26.624-61.44 61.44v245.76c0 34.816 26.624 61.44 61.44 61.44h327.68c34.816 0 61.44-26.624 61.44-61.44v-245.76c0-34.816-26.624-61.44-61.44-61.44zM348.16 468.48c-12.288 0-20.48-8.192-20.48-20.48v-245.76c0-12.288 8.192-20.48 20.48-20.48h327.68c12.288 0 20.48 8.192 20.48 20.48v245.76c0 12.288-8.192 20.48-20.48 20.48h-327.68zM552.96 386.56c0-22.622-18.338-40.96-40.96-40.96s-40.96 18.338-40.96 40.96c0 22.622 18.338 40.96 40.96 40.96s40.96-18.338 40.96-40.96zM522.24 386.56h-20.48l-20.48-122.88h61.44z" />
<glyph unicode="&#xe922;" glyph-name="ei-minus" d="M512 99.84c-192.512 0-348.16 155.648-348.16 348.16s155.648 348.16 348.16 348.16 348.16-155.648 348.16-348.16-155.648-348.16-348.16-348.16zM512 755.2c-169.984 0-307.2-137.216-307.2-307.2s137.216-307.2 307.2-307.2 307.2 137.216 307.2 307.2-137.216 307.2-307.2 307.2zM327.68 468.48h368.64v-40.96h-368.64z" />
<glyph unicode="&#xe923;" glyph-name="ei-navicon" d="M204.8 714.24h614.4v-81.92h-614.4zM204.8 509.44h614.4v-81.92h-614.4zM204.8 304.64h614.4v-81.92h-614.4z" />
<glyph unicode="&#xe924;" glyph-name="ei-paperclip" d="M282.624 148.992c-30.72 0-63.488 12.288-86.016 36.864-47.104 47.104-47.104 124.928 0 174.080l348.16 348.16c63.488 63.488 167.936 63.488 231.424 0s63.488-167.936 0-231.424l-262.144-262.144-28.672 28.672 260.096 260.096c47.104 47.104 47.104 124.928 0 174.080-47.104 47.104-124.928 47.104-174.080 0l-348.16-348.16c-16.384-16.384-24.576-36.864-24.576-57.344 0-22.528 8.192-43.008 24.576-57.344 32.768-32.768 83.968-32.768 116.736 0l260.096 260.096c16.384 16.384 16.384 40.96 0 57.344s-40.96 16.384-57.344 0l-174.080-172.032-28.672 28.672 174.080 174.080c32.768 32.768 83.968 32.768 116.736 0s32.768-83.968 0-116.736l-262.144-260.096c-22.528-24.576-55.296-36.864-86.016-36.864z" />
<glyph unicode="&#xe925;" glyph-name="ei-pencil" d="M196.608 132.608l51.2 202.752 305.152 305.152 151.552-151.552-305.152-305.152-202.752-51.2zM284.672 314.88l-30.72-124.928 124.928 30.72 268.288 268.288-94.208 94.208-268.288-268.288zM364.544 196.096c-12.288 51.2-53.248 92.16-104.448 104.448l10.24 38.912c65.536-16.384 116.736-67.584 133.12-133.12l-38.912-10.24zM600.023 565.002l28.959-28.959-266.445-266.65-28.959 28.877zM225.28 161.28l59.392 14.336c-6.144 22.528-22.528 38.912-45.056 45.056l-14.336-59.392zM716.8 501.248l-151.552 151.552 61.44 61.44 10.24-2.048c73.728-10.24 131.072-67.584 141.312-141.312l2.048-10.24-63.488-59.392zM622.592 652.8l94.208-94.208 18.432 18.432c-10.24 47.104-47.104 83.968-94.208 94.208l-18.432-18.432z" />
<glyph unicode="&#xe926;" glyph-name="ei-play" d="M512 99.84c-192.512 0-348.16 155.648-348.16 348.16s155.648 348.16 348.16 348.16 348.16-155.648 348.16-348.16-155.648-348.16-348.16-348.16zM512 755.2c-169.984 0-307.2-137.216-307.2-307.2s137.216-307.2 307.2-307.2 307.2 137.216 307.2 307.2-137.216 307.2-307.2 307.2zM409.6 269.824v356.352l307.2-178.176-307.2-178.176zM450.56 556.544v-215.040l184.32 108.544-184.32 106.496z" />
<glyph unicode="&#xe927;" glyph-name="ei-plus" d="M512 99.84c-192.512 0-348.16 155.648-348.16 348.16s155.648 348.16 348.16 348.16 348.16-155.648 348.16-348.16-155.648-348.16-348.16-348.16zM512 755.2c-169.984 0-307.2-137.216-307.2-307.2s137.216-307.2 307.2-307.2 307.2 137.216 307.2 307.2-137.216 307.2-307.2 307.2zM327.68 468.48h368.64v-40.96h-368.64zM491.52 632.32h40.96v-368.64h-40.96z" />
<glyph unicode="&#xe928;" glyph-name="ei-pointer" d="M675.84 181.76h-245.76c-12.288 0-20.48 8.192-20.48 20.48 0 30.72-14.336 49.152-36.864 77.824-12.288 14.336-26.624 32.768-40.96 55.296-38.912 61.44-73.728 135.168-81.92 161.792s-2.048 45.056 6.144 55.296c8.192 12.288 24.576 18.432 43.008 18.432 24.576 0 49.152-20.48 71.68-47.104v210.944c0 34.816 26.624 61.44 61.44 61.44s61.44-26.624 61.44-61.44v-86.016c6.144 2.048 12.288 4.096 20.48 4.096 22.528 0 40.96-12.288 51.2-28.672 8.192 6.144 18.432 8.192 28.672 8.192 28.672 0 51.2-18.432 59.392-45.056 6.144 2.048 14.336 4.096 22.528 4.096 34.816 0 61.44-26.624 61.44-61.44v-61.44c0-53.248-10.24-96.256-20.48-137.216s-20.48-79.872-20.48-129.024c0-12.288-8.192-20.48-20.48-20.48zM448.512 222.72h206.848c2.048 45.056 12.288 81.92 20.48 118.784 10.24 40.96 20.48 79.872 20.48 126.976v61.44c0 12.288-8.192 20.48-20.48 20.48s-20.48-8.192-20.48-20.48v-20.48c0-12.288-8.192-20.48-20.48-20.48s-20.48 8.192-20.48 20.48v61.44c0 12.288-8.192 20.48-20.48 20.48s-20.48-8.192-20.48-20.48v-40.96c0-12.288-8.192-20.48-20.48-20.48s-20.48 8.192-20.48 20.48v61.44c0 12.288-8.192 20.48-20.48 20.48s-20.48-8.192-20.48-20.48v-40.96c0-12.288-8.192-20.48-20.48-20.48s-20.48 8.192-20.48 20.48v184.32c0 12.288-8.192 20.48-20.48 20.48s-20.48-8.192-20.48-20.48v-307.2c0-12.288-8.192-20.48-20.48-20.48s-20.48 8.192-20.48 20.48v16.384c-18.432 47.104-57.344 86.016-71.68 86.016-4.096 0-8.192 0-10.24-2.048s-2.048-8.192 0-18.432c6.144-22.528 36.864-88.064 77.824-153.6 12.288-20.48 24.576-34.816 36.864-51.2 22.528-24.576 43.008-47.104 47.104-81.92z" />
<glyph unicode="&#xe929;" glyph-name="ei-question" d="M512 99.84c-192.512 0-348.16 155.648-348.16 348.16s155.648 348.16 348.16 348.16 348.16-155.648 348.16-348.16-155.648-348.16-348.16-348.16zM512 755.2c-169.984 0-307.2-137.216-307.2-307.2s137.216-307.2 307.2-307.2 307.2 137.216 307.2 307.2-137.216 307.2-307.2 307.2zM405.504 558.592c6.144 16.384 12.288 28.672 24.576 38.912 10.24 10.24 22.528 18.432 38.912 24.576s32.768 8.192 51.2 8.192c14.336 0 28.672-2.048 40.96-6.144s24.576-10.24 34.816-18.432 18.432-18.432 22.528-30.72c6.144-12.288 8.192-26.624 8.192-40.96 0-20.48-4.096-36.864-12.288-51.2s-20.48-26.624-32.768-40.96l-26.624-26.624c-6.144-6.144-12.288-12.288-14.336-18.432-4.096-6.144-6.144-14.336-6.144-22.528-2.048-8.192-2.048-14.336-2.048-30.72h-32.768c0 16.384 0 22.528 2.048 34.816 2.048 10.24 6.144 20.48 10.24 30.72 4.096 8.192 10.24 16.384 18.432 24.576s18.432 16.384 28.672 28.672c10.24 10.24 18.432 20.48 24.576 30.72s10.24 24.576 10.24 36.864c0 10.24-2.048 20.48-6.144 28.672s-10.24 16.384-16.384 22.528c-6.144 6.144-14.336 10.24-24.576 14.336s-18.432 6.144-28.672 6.144c-14.336 0-26.624-2.048-36.864-8.192-10.24-4.096-20.48-12.288-26.624-20.48s-12.288-18.432-16.384-30.72-8.192-18.432-8.192-32.768h-32.768c0 18.432 2.048 32.768 8.192 49.152zM532.48 304.64v-40.96h-40.96v40.96h40.96z" />
<glyph unicode="&#xe92a;" glyph-name="ei-redo" d="M512 181.76c-147.456 0-266.24 118.784-266.24 266.24s118.784 266.24 266.24 266.24c110.592 0 206.848-69.632 243.712-178.176l-38.912-14.336c-30.72 94.208-110.592 151.552-204.8 151.552-124.928 0-225.28-100.352-225.28-225.28s100.352-225.28 225.28-225.28c88.064 0 167.936 51.2 204.8 131.072l36.864-16.384c-43.008-94.208-137.216-155.648-241.664-155.648zM778.24 509.44h-163.84v40.96h122.88v122.88h40.96z" />
<glyph unicode="&#xe92b;" glyph-name="ei-refresh" d="M512 181.76c-147.456 0-266.24 118.784-266.24 266.24 0 65.536 24.576 126.976 67.584 176.128l30.72-26.624c-36.864-40.96-57.344-94.208-57.344-149.504 0-124.928 100.352-225.28 225.28-225.28 32.768 0 63.488 6.144 94.208 20.48l16.384-36.864c-34.816-16.384-71.68-24.576-110.592-24.576zM710.656 269.824l-30.72 26.624c36.864 40.96 57.344 94.208 57.344 149.504 0 124.928-100.352 225.28-225.28 225.28-32.768 0-63.488-6.144-94.208-20.48l-16.384 36.864c34.816 16.384 71.68 24.576 110.592 24.576 147.456 0 266.24-118.784 266.24-266.24 0-63.488-24.576-126.976-67.584-176.128zM368.64 468.48h-40.96v122.88h-122.88v40.96h163.84zM819.2 263.68h-163.84v163.84h40.96v-122.88h122.88z" />
<glyph unicode="&#xe92c;" glyph-name="ei-retweet" d="M778.24 243.2h-40.96v368.64c0 12.288-8.192 20.48-20.48 20.48h-348.16v40.96h348.16c34.816 0 61.44-26.624 61.44-61.44v-368.64zM757.76 212.48l-139.264 159.744 32.768 28.672 106.496-126.976 106.496 126.976 32.768-28.672zM655.36 222.72h-348.16c-34.816 0-61.44 26.624-61.44 61.44v368.64h40.96v-368.64c0-12.288 8.192-20.48 20.48-20.48h348.16v-40.96zM372.736 495.104l-106.496 126.976-106.496-126.976-32.768 28.672 139.264 159.744 139.264-159.744z" />
<glyph unicode="&#xe92d;" glyph-name="ei-sc-facebook" d="M532.48 550.4v61.44c0 26.624 6.144 40.96 49.152 40.96h53.248v102.4h-81.92c-102.4 0-143.36-67.584-143.36-143.36v-61.44h-81.92v-102.4h81.92v-307.2h122.88v307.2h90.112l12.288 102.4h-102.4z" />
<glyph unicode="&#xe92e;" glyph-name="ei-sc-github" d="M512 755.2c-169.984 0-307.2-137.216-307.2-307.2 0-135.168 88.064-249.856 210.944-290.816 16.384-2.048 20.48 6.144 20.48 14.336v53.248c-86.016-18.432-104.448 40.96-104.448 40.96-14.336 34.816-34.816 45.056-34.816 45.056-28.672 18.432 2.048 18.432 2.048 18.432 30.72-2.048 47.104-30.72 47.104-30.72 26.624-47.104 71.68-32.768 90.112-24.576 2.048 20.48 10.24 32.768 20.48 40.96-67.584 8.192-139.264 34.816-139.264 151.552 0 32.768 12.288 61.44 30.72 81.92-4.096 8.192-14.336 38.912 2.048 81.92 0 0 26.624 8.192 83.968-30.72 24.576 6.144 51.2 10.24 77.824 10.24s53.248-4.096 77.824-10.24c59.392 38.912 83.968 30.72 83.968 30.72 16.384-43.008 6.144-73.728 2.048-81.92 20.48-20.48 30.72-49.152 30.72-81.92 0-118.784-71.68-143.36-139.264-151.552 10.24-10.24 20.48-28.672 20.48-57.344v-83.968c0-8.192 6.144-18.432 20.48-14.336 122.88 40.96 208.896 155.648 208.896 290.816 2.048 167.936-135.168 305.152-305.152 305.152z" />
<glyph unicode="&#xe92f;" glyph-name="ei-sc-google-plus" d="M368.64 488.96v-98.304h161.792c-6.144-43.008-49.152-122.88-161.792-122.88-98.304 0-178.176 81.92-178.176 180.224s79.872 180.224 178.176 180.224c55.296 0 92.16-24.576 114.688-45.056l77.824 75.776c-51.2 47.104-114.688 75.776-192.512 75.776-157.696 0-286.72-129.024-286.72-286.72s129.024-286.72 286.72-286.72c165.888 0 274.432 116.736 274.432 280.576 0 18.432-2.048 32.768-4.096 47.104h-270.336zM983.040 488.96h-81.92v81.92h-81.92v-81.92h-81.92v-81.92h81.92v-81.92h81.92v81.92h81.92z" />
<glyph unicode="&#xe930;" glyph-name="ei-sc-instagram" d="M512 714.24c-72.294 0-81.367-0.307-109.773-1.597-28.344-1.29-47.698-5.796-64.635-12.37-18.45-7.064-34.178-17.513-47.126-30.7l-0.019-0.020c-13.209-12.973-23.658-28.707-30.418-46.272l-0.302-0.893c-6.574-16.916-11.059-36.27-12.37-64.614-1.29-28.406-1.597-37.478-1.597-109.773s0.307-81.367 1.597-109.773c1.29-28.344 5.796-47.698 12.37-64.614 6.82-17.51 15.913-32.358 30.72-47.165 12.967-13.207 28.694-23.655 46.252-30.418l0.893-0.302c16.937-6.554 36.291-11.059 64.635-12.37 28.406-1.29 37.478-1.597 109.773-1.597s81.367 0.307 109.773 1.597c28.344 1.29 47.698 5.796 64.614 12.37 18.459 7.061 34.193 17.511 47.146 30.7l0.019 0.020c13.209 12.973 23.658 28.707 30.418 46.272l0.302 0.893c6.554 16.916 11.059 36.27 12.37 64.614 1.29 28.406 1.597 37.478 1.597 109.773s-0.307 81.367-1.597 109.773c-1.29 28.344-5.796 47.698-12.39 64.614-7.056 18.457-17.498 34.191-30.681 47.147l-0.019 0.018c-12.972 13.209-28.707 23.659-46.273 30.418l-0.893 0.302c-16.916 6.554-36.27 11.059-64.614 12.37-28.406 1.29-37.478 1.597-109.773 1.597zM512 666.276c71.086 0 79.503-0.287 107.581-1.556 25.948-1.188 40.059-5.53 49.439-9.175 12.431-4.833 21.299-10.588 30.618-19.907s15.073-18.186 19.907-30.618c3.645-9.38 7.987-23.47 9.175-49.439 1.27-28.058 1.556-36.495 1.556-107.581s-0.287-79.503-1.556-107.581c-1.188-25.969-5.53-40.059-9.175-49.439-4.502-12.006-11.286-22.233-19.888-30.599l-0.019-0.018c-8.384-8.622-18.612-15.405-30.050-19.719l-0.568-0.188c-9.38-3.645-23.491-7.987-49.439-9.175-28.058-1.27-36.495-1.556-107.581-1.556s-79.524 0.287-107.581 1.556c-25.969 1.188-40.059 5.53-49.439 9.175-12.006 4.502-22.233 11.285-30.599 19.887l-0.018 0.019c-8.62 8.386-15.403 18.612-19.718 30.049l-0.188 0.568c-3.645 9.38-7.987 23.47-9.175 49.439-1.27 28.058-1.556 36.495-1.556 107.581s0.287 79.503 1.556 107.581c1.188 25.969 5.53 40.059 9.175 49.439 4.833 12.431 10.588 21.299 19.907 30.618 8.385 8.621 18.612 15.404 30.050 19.719l0.568 0.188c9.38 3.645 23.47 7.987 49.439 9.175 28.058 1.27 36.495 1.556 107.581 1.556zM512 591.36c-79.176 0-143.36-64.184-143.36-143.36s64.184-143.36 143.36-143.36v0c79.176 0 143.36 64.184 143.36 143.36s-64.184 143.36-143.36 143.36v0zM512 355.84c-50.899 0-92.16 41.261-92.16 92.16s41.261 92.16 92.16 92.16v0c50.899 0 92.16-41.261 92.16-92.16s-41.261-92.16-92.16-92.16v0zM690.176 589.312c0-18.097-14.671-32.768-32.768-32.768s-32.768 14.671-32.768 32.768v0c0 18.097 14.671 32.768 32.768 32.768s32.768-14.671 32.768-32.768v0z" />
<glyph unicode="&#xe931;" glyph-name="ei-sc-linkedin" d="M739.328 714.24h-454.656c-22.528 0-38.912-16.384-38.912-38.912v-454.656c0-20.48 18.432-38.912 38.912-38.912h454.656c22.528 0 38.912 16.384 38.912 38.912v454.656c0 22.528-18.432 38.912-38.912 38.912zM409.6 263.68h-81.92v245.76h81.92v-245.76zM368.64 542.208c-26.624 0-49.152 22.528-49.152 49.152s22.528 49.152 49.152 49.152c26.624 0 49.152-22.528 49.152-49.152s-22.528-49.152-49.152-49.152zM696.32 263.68h-81.92v122.88c0 32.768-8.192 65.536-40.96 65.536s-40.96-32.768-40.96-65.536v-122.88h-81.92v245.76h81.92v-28.672h4.096c10.24 20.48 36.864 36.864 67.584 36.864 75.776 0 92.16-49.152 92.16-110.592v-143.36z" />
<glyph unicode="&#xe932;" glyph-name="ei-sc-odnoklassniki" d="M512 427.52c-90.112 0-163.84 73.728-163.84 163.84s73.728 163.84 163.84 163.84 163.84-73.728 163.84-163.84-73.728-163.84-163.84-163.84zM512 677.376c-47.104 0-86.016-38.912-86.016-86.016s38.912-86.016 86.016-86.016 86.016 38.912 86.016 86.016-38.912 86.016-86.016 86.016zM688.128 411.136c-14.336 18.432-38.912 20.48-57.344 8.192 0 0-45.056-32.768-118.784-32.768s-118.784 32.768-118.784 32.768c-18.432 14.336-43.008 10.24-57.344-8.192s-10.24-43.008 8.192-57.344c2.048-2.048 45.056-34.816 116.736-45.056l-108.544-110.592c-16.384-16.384-16.384-43.008 0-57.344 8.192-8.192 18.432-12.288 28.672-12.288s20.48 4.096 28.672 12.288l102.4 104.448 102.4-104.448c8.192-8.192 18.432-12.288 28.672-12.288s20.48 4.096 28.672 12.288c16.384 16.384 16.384 40.96 0 57.344l-108.544 110.592c71.68 12.288 114.688 45.056 116.736 45.056 18.432 14.336 22.528 40.96 8.192 57.344z" />
<glyph unicode="&#xe933;" glyph-name="ei-sc-pinterest" d="M512 755.2c-169.984 0-307.2-137.216-307.2-307.2 0-131.072 81.92-241.664 194.56-286.72-2.048 24.576-4.096 61.44 2.048 88.064 6.144 24.576 36.864 153.6 36.864 153.6s-8.192 18.432-8.192 45.056c0 43.008 24.576 73.728 55.296 73.728 26.624 0 38.912-20.48 38.912-43.008 0-26.624-16.384-65.536-24.576-102.4-8.192-30.72 14.336-55.296 45.056-55.296 55.296 0 96.256 57.344 96.256 141.312 0 73.728-53.248 124.928-129.024 124.928-88.064 0-139.264-65.536-139.264-133.12 0-26.624 10.24-55.296 22.528-69.632 2.048-2.048 2.048-6.144 2.048-8.192-2.048-10.24-8.192-30.72-8.192-34.816-2.048-6.144-4.096-6.144-10.24-4.096-38.912 18.432-61.44 73.728-61.44 118.784 0 96.256 69.632 186.368 202.752 186.368 106.496 0 188.416-75.776 188.416-178.176 0-106.496-67.584-190.464-159.744-190.464-30.72 0-59.392 16.384-69.632 34.816 0 0-16.384-59.392-18.432-73.728-6.144-26.624-26.624-59.392-38.912-79.872 28.672-10.24 59.392-14.336 90.112-14.336 169.984 0 307.2 137.216 307.2 307.2s-137.216 307.2-307.2 307.2z" />
<glyph unicode="&#xe934;" glyph-name="ei-sc-skype" d="M778.24 400.896c2.048 16.384 4.096 32.768 4.096 49.152 0 36.864-6.144 71.68-20.48 104.448s-32.768 61.44-57.344 86.016c-24.576 24.576-53.248 45.056-86.016 57.344-32.768 14.336-69.632 20.48-104.448 20.48-16.384 0-34.816-2.048-51.2-4.096-22.528 12.288-49.152 18.432-75.776 18.432-43.008 0-83.968-16.384-112.64-47.104-30.72-30.72-47.104-69.632-47.104-112.64 0-26.624 6.144-53.248 20.48-77.824-2.048-14.336-4.096-30.72-4.096-47.104 0-36.864 6.144-71.68 20.48-104.448s32.768-61.44 57.344-86.016c24.576-24.576 53.248-45.056 86.016-57.344 32.768-14.336 69.632-20.48 104.448-20.48 16.384 0 32.768 2.048 47.104 4.096 24.576-14.336 51.2-20.48 79.872-20.48 43.008 0 83.968 16.384 112.64 47.104 30.72 30.72 47.104 69.632 47.104 112.64 0 26.624-6.144 53.248-20.48 77.824zM514.048 284.16c-96.256 0-139.264 47.104-139.264 81.92 0 18.432 14.336 30.72 32.768 30.72 40.96 0 30.72-59.392 106.496-59.392 38.912 0 61.44 20.48 61.44 43.008 0 12.288-6.144 28.672-32.768 34.816l-86.016 20.48c-69.632 16.384-81.92 55.296-81.92 90.112 0 73.728 67.584 100.352 133.12 100.352 59.392 0 129.024-32.768 129.024-75.776 0-18.432-16.384-28.672-34.816-28.672-34.816 0-28.672 49.152-100.352 49.152-34.816 0-55.296-16.384-55.296-38.912s28.672-30.72 51.2-34.816l63.488-14.336c69.632-16.384 86.016-55.296 86.016-94.208 2.048-59.392-43.008-104.448-133.12-104.448z" />
<glyph unicode="&#xe935;" glyph-name="ei-sc-soundcloud" d="M819.2 468.48h-4.096c-18.432 94.208-102.4 163.84-200.704 163.84-63.488 0-120.832-28.672-157.696-75.776-4.096-6.144-6.144-12.288-6.144-24.576l-8.192-186.368 8.192-112.64c0-6.144 6.144-10.24 10.24-10.24h358.4c67.584 0 122.88 55.296 122.88 122.88s-55.296 122.88-122.88 122.88zM387.072 550.4c-6.144 0-10.24-4.096-10.24-10.24l-16.384-184.32v-20.48l16.384-102.4c0-6.144 6.144-10.24 12.288-10.24h4.096c6.144 0 10.24 4.096 12.288 10.24l16.384 102.4c0 6.144 2.048 14.336 0 20.48l-16.384 184.32c0 6.144-6.144 10.24-10.24 10.24h-8.192zM305.152 529.92c-6.144 0-10.24-4.096-10.24-10.24l-16.384-163.84v-20.48l16.384-102.4c0-6.144 6.144-10.24 12.288-10.24h4.096c6.144 0 10.24 4.096 12.288 10.24l16.384 102.4c0 6.144 2.048 14.336 0 20.48l-16.384 163.84c0 6.144-6.144 10.24-10.24 10.24h-8.192zM225.28 468.48c-6.144 0-10.24-4.096-12.288-10.24l-16.384-102.4v-20.48l16.384-102.4c0-6.144 6.144-10.24 12.288-10.24s10.24 4.096 12.288 10.24l16.384 102.4v20.48l-16.384 102.4c-2.048 6.144-6.144 10.24-12.288 10.24zM143.36 488.96c-6.144 0-10.24-4.096-12.288-10.24l-18.432-122.88v-20.48l16.384-102.4c4.096-6.144 8.192-10.24 14.336-10.24s10.24 4.096 12.288 10.24l16.384 102.4c0 6.144 2.048 14.336 0 20.48l-18.432 122.88c0 6.144-4.096 10.24-10.24 10.24zM67.584 427.52c-6.144 0-10.24-4.096-12.288-10.24l-12.288-61.44c-2.048-6.144-2.048-14.336 0-20.48l12.288-81.92c2.048-6.144 6.144-10.24 12.288-10.24s10.24 4.096 12.288 10.24l12.288 81.92v20.48l-12.288 61.44c-2.048 6.144-6.144 10.24-12.288 10.24z" />
<glyph unicode="&#xe936;" glyph-name="ei-sc-telegram" d="M759.808 693.76l-567.296-225.28c-18.432-6.144-16.384-32.768 2.048-38.912l143.36-45.056 57.344-180.224c4.096-14.336 22.528-18.432 32.768-8.192l83.968 77.824 159.744-116.736c12.288-8.192 28.672-2.048 32.768 12.288l110.592 475.136c6.144 34.816-24.576 61.44-55.296 49.152zM428.032 349.696l-18.432-106.496-40.96 147.456 399.36 262.144-339.968-303.104z" />
<glyph unicode="&#xe937;" glyph-name="ei-sc-tumblr" d="M632.832 296.448c-10.24-4.096-30.72-10.24-47.104-10.24-45.056-2.048-55.296 32.768-55.296 57.344v178.176h114.688v86.016h-112.64v147.456h-83.968c-2.048 0-4.096-2.048-4.096-4.096-4.096-45.056-26.624-122.88-112.64-153.6v-73.728h57.344v-186.368c0-63.488 47.104-155.648 172.032-153.6 43.008 0 88.064 18.432 98.304 32.768l-26.624 79.872z" />
<glyph unicode="&#xe938;" glyph-name="ei-sc-twitter" d="M802.816 615.936c-22.528-10.24-45.056-16.384-71.68-20.48 24.576 16.384 45.056 38.912 55.296 67.584-24.576-14.336-51.2-24.576-77.824-30.72-22.528 24.576-55.296 38.912-90.112 38.912-67.584 0-124.928-55.296-124.928-124.928 0-10.24 2.048-18.432 4.096-28.672-102.4 4.096-194.56 55.296-256 129.024-10.24-14.336-16.384-34.816-16.384-57.344 0-43.008 22.528-81.92 55.296-102.4-20.48 0-38.912 6.144-55.296 16.384v-2.048c0-59.392 43.008-110.592 100.352-120.832-10.24-2.048-20.48-4.096-32.768-4.096-8.192 0-16.384 0-22.528 2.048 16.384-49.152 61.44-86.016 116.736-86.016-43.008-32.768-96.256-53.248-153.6-53.248-10.24 0-20.48 0-28.672 2.048 49.152-38.912 114.688-59.392 184.32-59.392 227.328 0 352.256 188.416 352.256 352.256v16.384c24.576 18.432 45.056 38.912 61.44 65.536z" />
<glyph unicode="&#xe939;" glyph-name="ei-sc-vimeo" d="M778.24 558.592c-2.048-55.296-40.96-131.072-114.688-227.328-77.824-100.352-143.36-151.552-196.608-151.552-32.768 0-61.44 30.72-83.968 92.16-14.336 55.296-30.72 112.64-45.056 167.936-16.384 61.44-34.816 92.16-55.296 92.16-4.096 0-18.432-8.192-45.056-26.624l-26.624 34.816c28.672 24.576 55.296 49.152 81.92 73.728 36.864 32.768 65.536 49.152 83.968 51.2 45.056 4.096 71.68-26.624 81.92-90.112 10.24-69.632 18.432-112.64 22.528-131.072 12.288-57.344 26.624-86.016 43.008-86.016 12.288 0 30.72 18.432 53.248 57.344 24.576 36.864 36.864 65.536 38.912 86.016 4.096 32.768-10.24 49.152-38.912 49.152-14.336 0-26.624-4.096-40.96-10.24 28.672 92.16 81.92 135.168 159.744 133.12 57.344-2.048 86.016-38.912 81.92-114.688z" />
<glyph unicode="&#xe93a;" glyph-name="ei-sc-vk" d="M514.048 224.768h40.96s12.288 2.048 18.432 8.192c6.144 6.144 6.144 18.432 6.144 18.432s0 53.248 24.576 61.44c24.576 8.192 57.344-53.248 90.112-75.776 24.576-18.432 43.008-14.336 43.008-14.336l90.112 2.048s47.104 2.048 24.576 40.96c-2.048 2.048-12.288 26.624-67.584 77.824-57.344 53.248-49.152 43.008 18.432 135.168 40.96 55.296 57.344 88.064 53.248 104.448-4.096 14.336-34.816 10.24-34.816 10.24h-102.4s-8.192 2.048-12.288-2.048c-6.144-4.096-8.192-10.24-8.192-10.24s-16.384-43.008-36.864-79.872c-45.056-75.776-63.488-79.872-69.632-75.776-16.384 10.24-12.288 45.056-12.288 67.584 0 73.728 12.288 104.448-22.528 112.64-10.24 2.048-18.432 4.096-47.104 4.096-36.864 0-67.584 0-83.968-8.192-12.288-6.144-20.48-18.432-14.336-18.432s22.528-4.096 30.72-14.336c8.192-18.432 8.192-49.152 8.192-49.152s6.144-88.064-14.336-98.304c-14.336-8.192-32.768 8.192-73.728 77.824-20.48 34.816-36.864 75.776-36.864 75.776s-2.048 8.192-8.192 12.288c-6.144 4.096-16.384 6.144-16.384 6.144h-96.256s-14.336 0-20.48-6.144c-4.096-6.144 0-16.384 0-16.384s75.776-176.128 161.792-266.24c79.872-86.016 167.936-79.872 167.936-79.872z" />
<glyph unicode="&#xe93b;" glyph-name="ei-sc-youtube" d="M813.056 579.072s-6.144 43.008-24.576 61.44c-22.528 24.576-49.152 24.576-61.44 26.624-86.016 6.144-215.040 6.144-215.040 6.144s-129.024 0-215.040-6.144c-12.288-2.048-38.912-2.048-61.44-26.624-18.432-18.432-24.576-61.44-24.576-61.44s-6.144-49.152-6.144-98.304v-45.056c0-49.152 6.144-100.352 6.144-100.352s6.144-43.008 24.576-61.44c22.528-24.576 53.248-24.576 67.584-26.624 49.152-2.048 208.896-4.096 208.896-4.096s129.024 0 215.040 6.144c12.288 2.048 38.912 2.048 61.44 26.624 18.432 18.432 24.576 61.44 24.576 61.44s6.144 49.152 6.144 98.304v45.056c0 49.152-6.144 98.304-6.144 98.304zM448.512 378.368v172.032l165.888-86.016-165.888-86.016z" />
<glyph unicode="&#xe93c;" glyph-name="ei-search" d="M471.040 222.72c-147.456 0-266.24 118.784-266.24 266.24s118.784 266.24 266.24 266.24 266.24-118.784 266.24-266.24-118.784-266.24-266.24-266.24zM471.040 714.24c-124.928 0-225.28-100.352-225.28-225.28s100.352-225.28 225.28-225.28 225.28 100.352 225.28 225.28-100.352 225.28-225.28 225.28zM669.327 319.652l183.91-183.91-28.959-28.959-183.91 183.91z" />
<glyph unicode="&#xe93d;" glyph-name="ei-share-apple" d="M620.544 679.424l-108.544 108.544-108.544-108.544-28.672 28.672 137.216 137.216 137.216-137.216zM491.52 816.64h40.96v-430.080h-40.96zM716.8 140.8h-409.6c-34.816 0-61.44 26.624-61.44 61.44v368.64c0 34.816 26.624 61.44 61.44 61.44h143.36v-40.96h-143.36c-12.288 0-20.48-8.192-20.48-20.48v-368.64c0-12.288 8.192-20.48 20.48-20.48h409.6c12.288 0 20.48 8.192 20.48 20.48v368.64c0 12.288-8.192 20.48-20.48 20.48h-143.36v40.96h143.36c34.816 0 61.44-26.624 61.44-61.44v-368.64c0-34.816-26.624-61.44-61.44-61.44z" />
<glyph unicode="&#xe93e;" glyph-name="ei-share-google" d="M307.2 345.6c-57.344 0-102.4 45.056-102.4 102.4s45.056 102.4 102.4 102.4 102.4-45.056 102.4-102.4-45.056-102.4-102.4-102.4zM307.2 509.44c-34.816 0-61.44-26.624-61.44-61.44s26.624-61.44 61.44-61.44 61.44 26.624 61.44 61.44-26.624 61.44-61.44 61.44zM716.8 550.4c-57.344 0-102.4 45.056-102.4 102.4s45.056 102.4 102.4 102.4 102.4-45.056 102.4-102.4-45.056-102.4-102.4-102.4zM716.8 714.24c-34.816 0-61.44-26.624-61.44-61.44s26.624-61.44 61.44-61.44 61.44 26.624 61.44 61.44-26.624 61.44-61.44 61.44zM716.8 140.8c-57.344 0-102.4 45.056-102.4 102.4s45.056 102.4 102.4 102.4 102.4-45.056 102.4-102.4-45.056-102.4-102.4-102.4zM716.8 304.64c-34.816 0-61.44-26.624-61.44-61.44s26.624-61.44 61.44-61.44 61.44 26.624 61.44 61.44-26.624 61.44-61.44 61.44zM389.263 429.875l263.782-131.891-18.33-36.618-263.782 131.891zM634.737 634.675l18.309-36.659-263.782-131.85-18.309 36.659z" />
<glyph unicode="&#xe93f;" glyph-name="ei-spinner-2" d="M552.96 755.2c0-22.622-18.338-40.96-40.96-40.96s-40.96 18.338-40.96 40.96c0 22.622 18.338 40.96 40.96 40.96s40.96-18.338 40.96-40.96zM552.96 140.8c0-22.622-18.338-40.96-40.96-40.96s-40.96 18.338-40.96 40.96c0 22.622 18.338 40.96 40.96 40.96s40.96-18.338 40.96-40.96zM706.56 714.24c0-22.622-18.338-40.96-40.96-40.96s-40.96 18.338-40.96 40.96c0 22.622 18.338 40.96 40.96 40.96s40.96-18.338 40.96-40.96zM399.36 181.76c0-22.622-18.338-40.96-40.96-40.96s-40.96 18.338-40.96 40.96c0 22.622 18.338 40.96 40.96 40.96s40.96-18.338 40.96-40.96zM399.36 714.24c0-22.622-18.338-40.96-40.96-40.96s-40.96 18.338-40.96 40.96c0 22.622 18.338 40.96 40.96 40.96s40.96-18.338 40.96-40.96zM706.56 181.76c0-22.622-18.338-40.96-40.96-40.96s-40.96 18.338-40.96 40.96c0 22.622 18.338 40.96 40.96 40.96s40.96-18.338 40.96-40.96zM245.76 448c0-22.622-18.338-40.96-40.96-40.96s-40.96 18.338-40.96 40.96c0 22.622 18.338 40.96 40.96 40.96s40.96-18.338 40.96-40.96zM860.16 448c0-22.622-18.338-40.96-40.96-40.96s-40.96 18.338-40.96 40.96c0 22.622 18.338 40.96 40.96 40.96s40.96-18.338 40.96-40.96zM286.72 601.6c0-22.622-18.338-40.96-40.96-40.96s-40.96 18.338-40.96 40.96c0 22.622 18.338 40.96 40.96 40.96s40.96-18.338 40.96-40.96zM819.2 294.4c0-22.622-18.338-40.96-40.96-40.96s-40.96 18.338-40.96 40.96c0 22.622 18.338 40.96 40.96 40.96s40.96-18.338 40.96-40.96zM286.72 294.4c0-22.622-18.338-40.96-40.96-40.96s-40.96 18.338-40.96 40.96c0 22.622 18.338 40.96 40.96 40.96s40.96-18.338 40.96-40.96zM819.2 601.6c0-22.622-18.338-40.96-40.96-40.96s-40.96 18.338-40.96 40.96c0 22.622 18.338 40.96 40.96 40.96s40.96-18.338 40.96-40.96z" />
<glyph unicode="&#xe94b;" glyph-name="ei-spinner-3" d="M858.112 470.528c-6.144 124.928-81.92 241.664-194.56 294.912-122.88 55.296-272.384 32.768-374.784-53.248-98.304-81.92-143.36-215.040-114.688-339.968 26.624-122.88 122.88-223.232 243.712-256 145.408-40.96 278.528 28.672 360.448 147.456-73.728-98.304-186.368-163.84-311.296-141.312s-227.328 116.736-256 239.616c-30.72 131.072 30.72 268.288 147.456 335.872 120.832 69.632 290.816 43.008 370.688-75.776 20.48-28.672 34.816-63.488 40.96-98.304 6.144-28.672 4.096-59.392 8.192-88.064 4.096-26.624 26.624-61.44 57.344-43.008 26.624 16.384 24.576 51.2 22.528 77.824 0 8.192 2.048-14.336 0 0z" />
<glyph unicode="&#xe94c;" glyph-name="ei-spinner" d="M512 591.36c-12.288 0-20.48 8.192-20.48 20.48v163.84c0 12.288 8.192 20.48 20.48 20.48s20.48-8.192 20.48-20.48v-163.84c0-12.288-8.192-20.48-20.48-20.48zM512 99.84c-12.288 0-20.48 8.192-20.48 20.48v163.84c0 12.288 8.192 20.48 20.48 20.48s20.48-8.192 20.48-20.48v-163.84c0-12.288-8.192-20.48-20.48-20.48zM593.92 570.88c-4.096 0-6.144 0-10.24 2.048-8.192 6.144-12.288 16.384-6.144 26.624l81.92 141.312c6.144 8.192 16.384 12.288 26.624 6.144 8.192-6.144 12.288-16.384 6.144-26.624l-81.92-141.312c-4.096-4.096-10.24-8.192-16.384-8.192zM348.16 144.896c-4.096 0-6.144 0-10.24 2.048-8.192 6.144-12.288 16.384-6.144 26.624l81.92 141.312c6.144 8.192 16.384 12.288 26.624 6.144 8.192-6.144 12.288-16.384 6.144-26.624l-81.92-141.312c-4.096-4.096-10.24-8.192-16.384-8.192zM430.080 570.88c-6.144 0-12.288 4.096-16.384 10.24l-81.92 141.312c-6.144 8.192-2.048 20.48 6.144 26.624s20.48 2.048 26.624-6.144l81.92-141.312c6.144-8.192 2.048-20.48-6.144-26.624-4.096-4.096-6.144-4.096-10.24-4.096zM675.84 144.896c-6.144 0-12.288 4.096-16.384 10.24l-81.92 141.312c-6.144 8.192-2.048 20.48 6.144 26.624s20.48 2.048 26.624-6.144l81.92-141.312c6.144-8.192 2.048-20.48-6.144-26.624-4.096-2.048-6.144-4.096-10.24-4.096zM348.16 427.52h-163.84c-12.288 0-20.48 8.192-20.48 20.48s8.192 20.48 20.48 20.48h163.84c12.288 0 20.48-8.192 20.48-20.48s-8.192-20.48-20.48-20.48zM839.68 427.52h-163.84c-12.288 0-20.48 8.192-20.48 20.48s8.192 20.48 20.48 20.48h163.84c12.288 0 20.48-8.192 20.48-20.48s-8.192-20.48-20.48-20.48zM370.688 511.488c-4.096 0-6.144 0-10.24 2.048l-141.312 81.92c-8.192 6.144-12.288 16.384-6.144 26.624 6.144 8.192 16.384 12.288 26.624 6.144l141.312-81.92c8.192-6.144 12.288-16.384 6.144-26.624-4.096-6.144-10.24-8.192-16.384-8.192zM796.672 265.728c-4.096 0-6.144 0-10.24 2.048l-141.312 81.92c-8.192 6.144-12.288 16.384-6.144 26.624 6.144 8.192 16.384 12.288 26.624 6.144l141.312-81.92c8.192-6.144 12.288-16.384 6.144-26.624-4.096-6.144-10.24-8.192-16.384-8.192zM227.328 265.728c-6.144 0-12.288 4.096-16.384 10.24-6.144 8.192-2.048 20.48 6.144 26.624l141.312 81.92c8.192 6.144 20.48 2.048 26.624-6.144s2.048-20.48-6.144-26.624l-141.312-81.92c-2.048-4.096-6.144-4.096-10.24-4.096zM653.312 511.488c-6.144 0-12.288 4.096-16.384 10.24-6.144 8.192-2.048 20.48 6.144 26.624l141.312 81.92c8.192 6.144 20.48 2.048 26.624-6.144s2.048-20.48-6.144-26.624l-141.312-81.92c-4.096-4.096-6.144-4.096-10.24-4.096z" />
<glyph unicode="&#xe958;" glyph-name="ei-star" d="M311.296 128.512c-4.096 0-8.192 2.048-12.288 4.096-8.192 6.144-10.24 14.336-8.192 22.528l79.872 245.76-208.896 153.6c-8.192 6.144-10.24 14.336-8.192 22.528s10.24 14.336 20.48 14.336h260.096l77.824 247.808c2.048 8.192 10.24 14.336 20.48 14.336s16.384-6.144 20.48-14.336l79.872-247.808h260.096c8.192 0 16.384-4.096 20.48-12.288s0-18.432-8.192-22.528l-208.896-151.552 79.872-245.76c2.048-8.192 0-18.432-8.192-22.528s-16.384-6.144-24.576 0l-210.944 147.456-208.896-151.552c-4.096-2.048-8.192-4.096-12.288-4.096zM532.48 331.264c4.096 0 8.192-2.048 12.288-4.096l169.984-124.928-65.536 200.704c-2.048 8.192 0 18.432 8.192 22.528l169.984 124.928h-210.944c-8.192 0-16.384 6.144-20.48 14.336l-63.488 200.704-65.536-200.704c-2.048-8.192-10.24-14.336-20.48-14.336h-210.944l169.984-124.928c8.192-6.144 10.24-14.336 8.192-22.528l-63.488-200.704 169.984 124.928c4.096 2.048 8.192 4.096 12.288 4.096z" />
<glyph unicode="&#xe959;" glyph-name="ei-tag" d="M450.56 138.752c-18.432 0-34.816 6.144-47.104 18.432l-182.272 182.272c-24.576 24.576-24.576 67.584 0 92.16l243.712 243.712c20.48 20.48 61.44 36.864 92.16 36.864h155.648c36.864 0 65.536-28.672 65.536-65.536v-155.648c0-30.72-16.384-69.632-36.864-92.16l-243.712-241.664c-12.288-12.288-28.672-18.432-47.104-18.432zM557.056 673.28c-20.48 0-49.152-12.288-61.44-26.624l-243.712-243.712c-10.24-10.24-10.24-24.576 0-34.816l182.272-182.272c10.24-8.192 24.576-8.192 34.816 0l243.712 243.712c14.336 14.336 26.624 43.008 26.624 61.44v155.648c0 14.336-10.24 24.576-24.576 24.576h-157.696zM614.4 468.48c-45.056 0-81.92 36.864-81.92 81.92s36.864 81.92 81.92 81.92 81.92-36.864 81.92-81.92-36.864-81.92-81.92-81.92zM614.4 591.36c-22.528 0-40.96-18.432-40.96-40.96s18.432-40.96 40.96-40.96 40.96 18.432 40.96 40.96-18.432 40.96-40.96 40.96z" />
<glyph unicode="&#xe95a;" glyph-name="ei-trash" d="M409.6 591.36h40.96v-327.68h-40.96zM491.52 591.36h40.96v-327.68h-40.96zM573.44 591.36h40.96v-327.68h-40.96zM245.76 714.24h532.48v-40.96h-532.48zM614.4 714.24h-40.96v20.48c0 12.288-8.192 20.48-20.48 20.48h-81.92c-12.288 0-20.48-8.192-20.48-20.48v-20.48h-40.96v20.48c0 34.816 26.624 61.44 61.44 61.44h81.92c34.816 0 61.44-26.624 61.44-61.44v-20.48zM634.88 140.8h-245.76c-32.768 0-61.44 26.624-65.536 59.392l-36.864 491.52 40.96 4.096 36.864-491.52c0-12.288 12.288-22.528 24.576-22.528h245.76c12.288 0 22.528 10.24 24.576 22.528l36.864 491.52 40.96-4.096-36.864-491.52c-4.096-32.768-32.768-59.392-65.536-59.392z" />
<glyph unicode="&#xe95b;" glyph-name="ei-trophy" d="M585.728 357.888c61.44 47.104 151.552 116.736 151.552 376.832v20.48h-450.56v-20.48c0-260.096 92.16-329.728 151.552-376.832 34.816-26.624 53.248-40.96 53.248-73.728v-61.44c-32.768-4.096-65.536-16.384-77.824-40.96h-45.056c-22.528 0-40.96-18.432-40.96-40.96h368.64c0 22.528-18.432 40.96-40.96 40.96h-45.056c-12.288 24.576-43.008 36.864-77.824 40.96v61.44c0 32.768 16.384 47.104 53.248 73.728zM512 347.648c-12.288 16.384-30.72 30.72-47.104 43.008-55.296 43.008-131.072 100.352-135.168 323.584h368.64c-4.096-221.184-79.872-280.576-135.168-323.584-20.48-14.336-38.912-26.624-51.2-43.008zM385.024 407.040c-2.048 0-221.184 47.104-221.184 286.72v20.48h143.36v-40.96h-102.4c12.288-188.416 186.368-225.28 188.416-225.28l-8.192-40.96zM638.976 407.040l-8.192 40.96c8.192 2.048 176.128 38.912 188.416 225.28h-102.4v40.96h143.36v-20.48c0-239.616-219.136-286.72-221.184-286.72z" />
<glyph unicode="&#xe95c;" glyph-name="ei-undo" d="M512 181.76c-104.448 0-198.656 61.44-241.664 155.648l36.864 16.384c36.864-79.872 116.736-131.072 204.8-131.072 124.928 0 225.28 100.352 225.28 225.28s-100.352 225.28-225.28 225.28c-94.208 0-174.080-57.344-206.848-149.504l-38.912 14.336c38.912 106.496 135.168 176.128 245.76 176.128 147.456 0 266.24-118.784 266.24-266.24s-118.784-266.24-266.24-266.24zM409.6 509.44h-163.84v163.84h40.96v-122.88h122.88z" />
<glyph unicode="&#xe95d;" glyph-name="ei-unlock" d="M368.64 488.96h-40.96v81.92c0 102.4 81.92 184.32 184.32 184.32 92.16 0 172.032-69.632 182.272-161.792l-40.96-4.096c-8.192 71.68-69.632 124.928-141.312 124.928-79.872 0-143.36-63.488-143.36-143.36v-81.92zM675.84 140.8h-327.68c-34.816 0-61.44 26.624-61.44 61.44v245.76c0 34.816 26.624 61.44 61.44 61.44h327.68c34.816 0 61.44-26.624 61.44-61.44v-245.76c0-34.816-26.624-61.44-61.44-61.44zM348.16 468.48c-12.288 0-20.48-8.192-20.48-20.48v-245.76c0-12.288 8.192-20.48 20.48-20.48h327.68c12.288 0 20.48 8.192 20.48 20.48v245.76c0 12.288-8.192 20.48-20.48 20.48h-327.68zM552.96 386.56c0-22.622-18.338-40.96-40.96-40.96s-40.96 18.338-40.96 40.96c0 22.622 18.338 40.96 40.96 40.96s40.96-18.338 40.96-40.96zM522.24 386.56h-20.48l-20.48-122.88h61.44z" />
<glyph unicode="&#xe95e;" glyph-name="ei-user" d="M514.048 99.84c-192.512 0-348.16 155.648-348.16 348.16s155.648 348.16 348.16 348.16 348.16-155.648 348.16-348.16-157.696-348.16-348.16-348.16zM514.048 755.2c-169.984 0-307.2-137.216-307.2-307.2s137.216-307.2 307.2-307.2 307.2 137.216 307.2 307.2-139.264 307.2-307.2 307.2zM313.344 196.096l-36.864 16.384c10.24 24.576 43.008 38.912 77.824 55.296s77.824 34.816 77.824 57.344v30.72c-12.288 10.24-32.768 32.768-36.864 65.536-10.24 10.24-26.624 28.672-26.624 53.248 0 14.336 6.144 26.624 10.24 34.816-4.096 16.384-8.192 47.104-8.192 71.68 0 79.872 55.296 133.12 143.36 133.12 24.576 0 55.296-6.144 71.68-24.576 38.912-8.192 71.68-53.248 71.68-108.544 0-34.816-6.144-63.488-10.24-77.824 4.096-6.144 8.192-16.384 8.192-28.672 0-26.624-14.336-45.056-26.624-53.248-4.096-32.768-22.528-53.248-34.816-63.488v-32.768c0-18.432 36.864-32.768 69.632-45.056 38.912-14.336 79.872-30.72 94.208-63.488l-38.912-14.336c-6.144 16.384-38.912 28.672-69.632 38.912-45.056 16.384-96.256 34.816-96.256 81.92v53.248l10.24 6.144s24.576 16.384 24.576 49.152v14.336l12.288 6.144c2.048 0 12.288 6.144 12.288 22.528 0 4.096-4.096 10.24-6.144 12.288l-8.192 8.192 4.096 10.24s10.24 32.768 10.24 73.728c0 38.912-22.528 67.584-40.96 67.584h-12.288l-6.144 10.24c0 8.192-14.336 16.384-38.912 16.384-63.488 0-102.4-34.816-102.4-92.16 0-26.624 10.24-71.68 10.24-71.68l2.048-10.24-8.192-10.24c-2.048 0-6.144-6.144-6.144-14.336 0-10.24 12.288-22.528 18.432-26.624l8.192-6.144v-10.24c0-30.72 26.624-47.104 26.624-49.152l10.24-6.144v-53.248c0-49.152-53.248-73.728-102.4-94.208-22.528-8.192-53.248-22.528-57.344-32.768z" />
</font>
</defs>
</svg>
